Thursday, November 15th, 2018

John B Podcast 056: August 2008 Studio Mix

19

Tracklist:

1. [0:00] Phonat // Learn To Recycle (John B Re-Edit)
2. [3:56] Silent Witness // Black Eye
3. [6:53] Disco HO HO (John B Mashup)
4. [9:07] Nosia // Crank
5. [11:15] John B // When The Time Comes (VIP Edit)
6. [16:06] Eric Prydz // Pjanoo (High Contrast Remix)
7. [18:40] NuTone // Balaclava
8. [21:12] Seba // Blaze & Fade Out
9. [24:46] Gridlock // NES Remix
10. [27:40] Grossstadtgefluster // Haufenweise Sheisse
11. [31:10] DStyle // Ho Bass
12. [31:55] DJ Assault // Bras & Panties (John B Re-Edit]
13. [33:23] DJ Rashad // Get Down (John B Re-Edit)
14. [35:02] Unborn // Spacelab Program (John B Re-Edit)
15. [38:25] Total Science // Fantazia
16. [40:46] Justice // Phantom (Terravita Remix)
17. [42:58] Phetsta & Shockone feat. Grant McCulough // Cyclones
18. [47:09] Glamour For Better // Architechs Of Discotech (John B Remix)
19. [50:52] Nine Inch Nails // The Hand That Feeds (Zardonic Remix)
20. [53:22] Concord Dawn // Take It As It Comes (Instrumental)
21. [55:38] Poney Poney // Cross The Fader (John B Remix)
22. [58:48] Fresh // Golddust
23. [61:36] DSL, EVLINTNT & EWUN // Midnight Express
24. [64:30] Pendulum // 9000 Miles
25. [68:12] John B // Dancing In The Dark
26. [71:28] Phetsta & ShockOne // The Sun
27. [73:12] Chase & Status feat. plan B // Pieces
28. [74:51] Subfocus // Time Warp
29. [76:54] Sam Sparro // Black & Gold (Highland Hustlers Remix)
30. [79:36] Justice // DVNO (Nero Remix)

John B @ YumYum Club, Amstetten July 2008

Comments

19 Responses to “John B Podcast 056: August 2008 Studio Mix”
  1. [m] says:

    TITLE "August 2008 Studio Mix"
    PERFORMER "John B"
    FILE JohnB_August2008_StudioMix.mp3 MP3
    TRACK 01 AUDIO
    TITLE "Learn To Recycle (John B Re-Edit)"
    PERFORMER "Phonat"
    INDEX 01 00:00:00
    TRACK 02 AUDIO
    TITLE "Black Eye"
    PERFORMER "Silent Witness"
    INDEX 01 03:56:00
    TRACK 03 AUDIO
    TITLE "John B Mashup"
    PERFORMER "Disco Ho Ho"
    INDEX 01 06:53:00
    TRACK 04 AUDIO
    TITLE "Crank"
    PERFORMER "Nosia"
    INDEX 01 09:07:00
    TRACK 05 AUDIO
    TITLE "When The Time Comes (VIP Edit)"
    PERFORMER "John B"
    INDEX 01 11:15:00
    TRACK 06 AUDIO
    TITLE "Pjanoo (High Contrast Remix)"
    PERFORMER "Eric Prydz"
    INDEX 01 16:06:00
    TRACK 07 AUDIO
    TITLE "Balaclava"
    PERFORMER "Nu Tone"
    INDEX 01 18:40:00
    TRACK 08 AUDIO
    TITLE "Blaze & Fade Out"
    PERFORMER "Seba"
    INDEX 01 21:12:00
    TRACK 09 AUDIO
    TITLE "NES Remix"
    PERFORMER "Gridlock"
    INDEX 01 24:46:00
    TRACK 10 AUDIO
    TITLE "Haufenweise Sheisse"
    PERFORMER "Grossstadtgefluster"
    INDEX 01 27:40:00
    TRACK 11 AUDIO
    TITLE "Ho Bass"
    PERFORMER "D-Style"
    INDEX 01 31:10:00
    TRACK 12 AUDIO
    TITLE "Bras & Panties (John B Re-Edit)"
    PERFORMER "DJ Assault"
    INDEX 01 31:55:00
    TRACK 13 AUDIO
    TITLE "Get Down (John B Re-Edit)"
    PERFORMER "DJ Rashad"
    INDEX 01 33:23:00
    TRACK 14 AUDIO
    TITLE "Spacelab Program (John B Re-Edit)"
    PERFORMER "Unborn"
    INDEX 01 35:02:00
    TRACK 15 AUDIO
    TITLE "Fantazia"
    PERFORMER "Total Science"
    INDEX 01 38:25:00
    TRACK 16 AUDIO
    TITLE "Phantom (Terravita Remix)"
    PERFORMER "Justice"
    INDEX 01 40:46:00
    TRACK 17 AUDIO
    TITLE "Cyclones"
    PERFORMER "Phetsta & Shockone feat. Grant McCulough"
    INDEX 01 42:58:00
    TRACK 18 AUDIO
    TITLE "Architechs Of Discotech (John B Remix)"
    PERFORMER "Glamour For Better"
    INDEX 01 47:09:00
    TRACK 19 AUDIO
    TITLE "The Hand That Feeds (Zardonic Remix)"
    PERFORMER "Nine Inch Nails"
    INDEX 01 50:52:00
    TRACK 20 AUDIO
    TITLE "Take It As It Comes (Instrumental)"
    PERFORMER "Concord Dawn"
    INDEX 01 53:22:00
    TRACK 21 AUDIO
    TITLE "Cross The Fader (John B Remix)"
    PERFORMER "Poney Poney"
    INDEX 01 55:38:00
    TRACK 22 AUDIO
    TITLE "Gold dust"
    PERFORMER "Dj Fresh"
    INDEX 01 58:48:00
    TRACK 23 AUDIO
    TITLE "Midnight Express"
    PERFORMER "DSL, EVLINTNT & EWUN"
    INDEX 01 61:36:00
    TRACK 24 AUDIO
    TITLE "9000 Miles"
    PERFORMER "Pendulum"
    INDEX 01 64:30:00
    TRACK 25 AUDIO
    TITLE "Dancing In The Dark"
    PERFORMER "John B"
    INDEX 01 68:12:00
    TRACK 26 AUDIO
    TITLE "The Sun"
    PERFORMER "Phetsta & ShockOne"
    INDEX 01 71:28:00
    TRACK 27 AUDIO
    TITLE "Pieces"
    PERFORMER "Chase & Status feat. Plan B"
    INDEX 01 73:12:00
    TRACK 28 AUDIO
    TITLE "Time Warp"
    PERFORMER "Subfocus"
    INDEX 01 74:51:00
    TRACK 29 AUDIO
    TITLE "Black & Gold (Highland Hustlers Remix)"
    PERFORMER "Sam Sparro"
    INDEX 01 76:54:00
    TRACK 30 AUDIO
    TITLE "DVNO (Nero Remix)"
    PERFORMER "Justice"
    INDEX 01 79:39:00

  2. [m] says:

    nice mixxx 🙂

  3. andrew says:

    Runnin this one on 88.5 fm in Atlanta tonight. Thanks for the quality electro dnb business!

    Ideal

  4. addicted2bass85 says:

    heard it on 88.5 last night and mucho enjoyed it.
    ready to download it and give it another listen.

  5. Krz says:

    Thanks for the wicked cool mix man!

  6. CD7 says:

    This is just awesome – Cant wait to see you soon in Estonia!

  7. Silvah says:

    Nice One Mr B ;o)

  8. Bozboz says:

    uploading into cortisoids. Thanks Mr B.

  9. chavxl says:

    ace mix as always. Have you ever made a rubbish August mix lol.

    i hope i can pick up that glamour tune eventually – is heavy

    and big up Zardonic as well. I always cussed him for his deathstep shite but that NIN remix is brilliant – nice one

  10. Péter says:

    Excellent!
    I can’t stop listening this MIX!
    Respect!

  11. raver777 says:

    That’s awesome!!!!!!!!!!!
    really the best i ever heard!!

  12. mbirth says:

    Awesome!! Where's the September (or October?) Studio Mix? Is the podcast channel dead?

    More accurate cuesheet:

    PERFORMER "John B"
    TITLE "August 2008 Studio Mix"
    FILE "JohnB_August2008_StudioMix.mp3" MP3
    TRACK 01 AUDIO
    TITLE "Learn To Recycle (John B Re-Edit)"
    PERFORMER "Phonat"
    INDEX 01 00:00:00
    TRACK 02 AUDIO
    TITLE "Black Eye"
    PERFORMER "Silent Witness"
    INDEX 01 03:59:19
    TRACK 03 AUDIO
    TITLE "Disco HO HO (John B Mashup)"
    INDEX 01 06:55:33
    TRACK 04 AUDIO
    TITLE "Crank"
    PERFORMER "Noisia"
    INDEX 01 08:57:62
    TRACK 05 AUDIO
    TITLE "When The Time Comes (VIP Edit)"
    PERFORMER "John B"
    INDEX 01 11:19:46
    TRACK 06 AUDIO
    TITLE "Pjanoo (High Contrast Remix)"
    PERFORMER "Eric Prydz"
    INDEX 01 15:23:33
    TRACK 07 AUDIO
    TITLE "Balaclava"
    PERFORMER "NuTone"
    INDEX 01 19:25:64
    TRACK 08 AUDIO
    TITLE "Blaze & Fade Out"
    PERFORMER "Seba"
    INDEX 01 20:54:09
    TRACK 09 AUDIO
    TITLE "NES Remix"
    PERFORMER "Gridlock"
    INDEX 01 25:41:02
    TRACK 10 AUDIO
    TITLE "Haufenweise Scheiufffde"
    PERFORMER "Groufffdstadtgeflufffdster"
    INDEX 01 27:42:05
    TRACK 11 AUDIO
    TITLE "Ho Bass"
    PERFORMER "DStyle"
    INDEX 01 31:11:23
    TRACK 12 AUDIO
    TITLE "Bras & Panties (John B Re-Edit)"
    PERFORMER "DJ Assault"
    INDEX 01 31:56:36
    TRACK 13 AUDIO
    TITLE "Get Down (John B Re-Edit)"
    PERFORMER "DJ Rashad"
    INDEX 01 33:58:08
    TRACK 14 AUDIO
    TITLE "Spacelab Program (John B Re-Edit)"
    PERFORMER "Unborn"
    INDEX 01 35:47:69
    TRACK 15 AUDIO
    TITLE "Fantazia"
    PERFORMER "Total Science"
    INDEX 01 38:33:40
    TRACK 16 AUDIO
    TITLE "Phantom (Terravita Remix)"
    PERFORMER "Justice"
    INDEX 01 40:23:74
    TRACK 17 AUDIO
    TITLE "Cyclones"
    PERFORMER "Phetsta & Shockone feat. Grant McCulough"
    INDEX 01 42:58:21
    TRACK 18 AUDIO
    TITLE "Architects of Discotech (John B Remix)"
    PERFORMER "Glamour For Better"
    INDEX 01 47:11:56
    TRACK 19 AUDIO
    TITLE "The Hand That Feeds (Zardonic Remix)"
    PERFORMER "Nine Inch Nails"
    INDEX 01 50:53:36
    TRACK 20 AUDIO
    TITLE "Take It As It Comes (Instrumental)"
    PERFORMER "Concord Dawn"
    INDEX 01 53:27:47
    TRACK 21 AUDIO
    TITLE "Cross The Fader (John B Remix)"
    PERFORMER "Poney Poney"
    INDEX 01 56:01:20
    TRACK 22 AUDIO
    TITLE "Golddust"
    PERFORMER "Fresh"
    INDEX 01 58:50:19
    TRACK 23 AUDIO
    TITLE "Midnight Express"
    PERFORMER "DSL, EVLINTNT & EWUN"
    INDEX 01 61:46:44
    TRACK 24 AUDIO
    TITLE "9000 Miles"
    PERFORMER "Pendulum"
    INDEX 01 64:33:16
    TRACK 25 AUDIO
    TITLE "Dancing In The Dark"
    PERFORMER "John B"
    INDEX 01 68:58:37
    TRACK 26 AUDIO
    TITLE "The Sun"
    PERFORMER "Phetsta & ShockOne"
    INDEX 01 71:33:26
    TRACK 27 AUDIO
    TITLE "Pieces"
    PERFORMER "Chase & Status feat. Plan B"
    INDEX 01 73:23:35
    TRACK 28 AUDIO
    TITLE "Time Warp"
    PERFORMER "Subfocus"
    INDEX 01 75:35:53
    TRACK 29 AUDIO
    TITLE "Black & Gold (Highland Hustlers Remix)"
    PERFORMER "Sam Sparro"
    INDEX 01 77:04:00
    TRACK 30 AUDIO
    TITLE "DVNO (Nero Remix)"
    PERFORMER "Justice"
    INDEX 01 79:38:38

  13. Phrenzy says:

    Better late than never. Wicked mix. :]

  14. mache says:

    Thanks for the mix, been listening to it all week. — Dance like a ho, dance like a ho –! Hahah, great job! =D

  15. John B says:

    more coming soon! podcast is alive and well!

  16. Marcin says:

    Nice, nice, nice set !!! 😉 Greetings from Poland! We hope see you soon John!

  17. Jacob L @ Safe'n'Dry says:

    Great Mix, Friends totally dug it. Well done as always!
    http://www.samplesradio.com

    your fan
    -J7

  18. Joe_Perry_Jr says:

    this first track, i know it's Phonat – Learn To Recycle, but anybody knows what is the original artist, the very first???

Speak Your Mind

Tell us what you're thinking...
and oh, if you want a pic to show with your comment, go get a gravatar!

You must be logged in to post a comment.